Telecharger scan the killing joke

by admin on 21.01.2020

Le Joker est de retour! Après s'être fait – volontairement – enlever la peau du visage par le Taxidermiste et avoir disparu de la circulation. Les fans de The Killing Joke vont être ravis. Télécharger le titre sur Amazon Il s'agit de livre gigantesques reprenant à l'échelle: 1 les scans originaux des pages des artistes de légende comme Walter Simonson, David. 27 juil. Evidemment, l'enquête est semée d'embuches et cela amène Batman à être confronté à plusieurs de ses ennemis tel le Joker, le Pingouin et.

nerdiversary.com (Officiel France) nerdiversary.com Site de Bit depth: 8 bits Scan type: Progressive Bits/(Pixel*Frame): Stream size: GiB (77%). Quantité. Batman: The Killing Joke (VF). Scénario: Alan Moore. Dessin: Brian Bolland. Le Joker s'est à nouveau échappé de l'asile d'Arkham. Il a cette fois. 27 juil. Evidemment, l'enquête est semée d'embuches et cela amène Batman à être confronté à plusieurs de ses ennemis tel le Joker, le Pingouin et.

Noté /5. Retrouvez Absolute Batman: The Killing Joke (30th Anniversary Edition) et des millions de livres en stock sur nerdiversary.com Achetez neuf ou d' occasion. 26 juil. Adaptation de l'un des plus célèbres comic books sur Batman, qui revient sur la naissance du Joker et la façon dont celui-ci paralyse la fille du. 31 janv. Dans les années 80, c'était le dark et le glauque étaient à la mode avec des œuvres majeures comme The Killing Joke ou The Dark Knight.

Série VF: Batman: The Killing Joke. • Rechercher Batman: The Killing Joke sur Price Minister. • Rechercher Batman: The Killing Joke sur nerdiversary.com • Rechercher. nerdiversary.com (Officiel France) nerdiversary.com Site de Bit depth: 8 bits Scan type: Progressive Bits/(Pixel*Frame): Stream size: GiB (77%). Un vrai chef d'oeuvre, reunissant trois grand noms: Bolland, Moore, et Higgins. on y apprend l'origine du Joker et on voit la "fin" de Batgirl. les scenario est riche .

  • Plugins pod farm telecharger
  • Telecharger pilote controleur ethernet acer aspire 5733z
  • Telecharger une vieille version de geogebra
  • Michael chapman true north telecharger gratuitement
  • Telecharger livre la vengeance aux yeux clairs
  • Daddy cool 2017 telecharger legal
  • Telecharger des test psychologique angoisse telecharger